收藏本站 ㅤㅤㅤㅤ4K时光成立于2020.02.02ㅤㅤ已运行已运行
微信扫一扫 分享朋友圈

已有 3183 人浏览分享

开启左侧

[LG演示片]韩国女子组合AOA - Miniskirt(短裙)双语字幕[MKV/百度/551M]

[复制链接]
3183 36




  1. General
  2. Unique ID                      : 315751387474552277853057024019930316117 (0xED8B815591448B13EFC6280F5EF07D55)
  3. Complete name                  : D:\Song\MV\日韩\[4K][Live]AOA - Miniskirt.mkv
  4. Format                         : Matroska
  5. Format version                 : Version 4
  6. File size                      : 551 MiB
  7. Duration                       : 3 min 9 s
  8. Overall bit rate               : 24.4 Mb/s
  9. Movie name                     : [Live]AOA - Miniskirt
  10. Encoded date                   : UTC 2020-03-18 17:30:01
  11. Writing application            : mkvmerge v44.0.0 ('Domino') 64-bit
  12. Writing library                : libebml v1.3.10 + libmatroska v1.5.2

  13. Video
  14. ID                             : 1
  15. Format                         : HEVC
  16. Format/Info                    : High Efficiency Video Coding
  17. Format profile                 : Main@L5.1@Main
  18. Codec ID                       : V_MPEGH/ISO/HEVC
  19. Duration                       : 3 min 9 s
  20. Bit rate                       : 24.1 Mb/s
  21. Width                          : 3 840 pixels
  22. Height                         : 2 160 pixels
  23. Display aspect ratio           : 16:9
  24. Frame rate mode                : Constant
  25. Frame rate                     : 59.940 (60000/1001) FPS
  26. Color space                    : YUV
  27. Chroma subsampling             : 4:2:0
  28. Bit depth                      : 8 bits
  29. Bits/(Pixel*Frame)             : 0.048
  30. Stream size                    : 543 MiB (99%)
  31. Title                          : [Live]AOA - Miniskirt
  32. Writing library                : ATEME Titan KFE 3.5.1 (4.5.1.510)
  33. Language                       : Korean
  34. Default                        : Yes
  35. Forced                         : No

  36. Audio
  37. ID                             : 2
  38. Format                         : AAC LC
  39. Format/Info                    : Advanced Audio Codec Low Complexity
  40. Codec ID                       : A_AAC-2
  41. Duration                       : 3 min 9 s
  42. Bit rate                       : 192 kb/s
  43. Channel(s)                     : 2 channels
  44. Channel layout                 : L R
  45. Sampling rate                  : 48.0 kHz
  46. Frame rate                     : 46.875 FPS (1024 SPF)
  47. Compression mode               : Lossy
  48. Stream size                    : 4.27 MiB (1%)
  49. Title                          : [Live]AOA - Miniskirt
  50. Language                       : Korean
  51. Default                        : Yes
  52. Forced                         : No

  53. Text
  54. ID                             : 3
  55. Format                         : PGS
  56. Muxing mode                    : zlib
  57. Codec ID                       : S_HDMV/PGS
  58. Codec ID/Info                  : Picture based subtitle format used on BDs/HD-DVDs
  59. Duration                       : 2 min 42 s
  60. Bit rate                       : 342 kb/s
  61. Count of elements              : 361
  62. Stream size                    : 6.63 MiB (1%)
  63. Title                          : BYCZ
  64. Language                       : Chinese
  65. Default                        : Yes
  66. Forced                         : No

复制代码





评论 36

赵鹏  新手上路  发表于 6-18 01:08:00 | 显示全部楼层
发贴辛苦了,谢谢楼主分享60帧电影的完整版!我觉得4k时光www.4ksg.com真是个好地方!
zxcvbnm20200608  注册会员  发表于 6-21 20:07:54 | 显示全部楼层
发贴辛苦了,谢谢楼主分享60帧电影的完整版!我觉得4k时光www.4ksg.com真是个好地方!
wenoun  新手上路  发表于 6-22 10:16:37 | 显示全部楼层
发贴辛苦了,谢谢楼主分享60帧电影的完整版!
小想呢  新手上路  发表于 6-27 08:19:06 | 显示全部楼层
这东西我收了!谢谢楼主!4k时光真好!
Legolas_X  新手上路  发表于 6-29 20:32:46 | 显示全部楼层
楼主,我太崇拜你了!我想我是一天也不能离开4k时光。
htsm1980  新手上路  发表于 7-1 21:29:32 | 显示全部楼层
哈哈哈不不不重新
aa111  注册会员  发表于 7-3 08:42:47 | 显示全部楼层
提示: 作者被禁止或删除 内容自动屏蔽
您需要登录后才可以回帖 登录 | 立即注册

本版积分规则

0

关注

0

粉丝

2

主题
金币任务:20币保底,100币封顶

QQ|4K时光 ( 粤ICP备17047754号 )|网站地图 |

GMT+8, 10-23 02:23 , Processed in 0.232799 second(s), 48 queries .

Powered by 4K时光

© 2001-2020 4kSG.com Inc.

  • 时光客服QQ:咨询

    在线时间:10:00-22:00