收藏本站 ㅤㅤㅤㅤ4K时光成立于2020.02.02ㅤㅤ已运行已运行
微信扫一扫 分享朋友圈

已有 3187 人浏览分享

开启左侧

[百度]K/DA - POP/STARS[569M][MKV][FLAC音轨][双语字幕]

[复制链接]
3187 13


2017英雄联盟女团KDA出道首发单曲动画MV
4K60帧,FLAC无损音轨,自制SUP三语字幕



  1. General
  2. Unique ID                      : 2905561420513716278710794287976532651 (0x22F973CFF6EFB26E7D02B12824FCAAB)
  3. Complete name                  : D:\Song\MV\日韩\[4K]K&DA - POP&STARS.mkv
  4. Format                         : Matroska
  5. Format version                 : Version 4
  6. File size                      : 570 MiB
  7. Duration                       : 3 min 22 s
  8. Overall bit rate mode          : Variable
  9. Overall bit rate               : 23.6 Mb/s
  10. Movie name                     : K&DA - POP&STARS
  11. Encoded date                   : UTC 2020-03-14 02:37:29
  12. Writing application            : mkvmerge v44.0.0 ('Domino') 64-bit
  13. Writing library                : libebml v1.3.10 + libmatroska v1.5.2
  14. Cover                          : Yes
  15. Attachments                    : COVER.jpg

  16. Video
  17. ID                             : 3
  18. Format                         : VP9
  19. Codec ID                       : V_VP9
  20. Duration                       : 3 min 22 s
  21. Bit rate                       : 22.2 Mb/s
  22. Width                          : 3 840 pixels
  23. Height                         : 2 160 pixels
  24. Display aspect ratio           : 16:9
  25. Frame rate mode                : Constant
  26. Frame rate                     : 60.000 FPS
  27. Color space                    : YUV
  28. Bits/(Pixel*Frame)             : 0.045
  29. Stream size                    : 537 MiB (94%)
  30. Title                          : K&DA - POP&STARS
  31. Language                       : English
  32. Default                        : Yes
  33. Forced                         : No
  34. Color range                    : Limited
  35. Color primaries                : BT.709
  36. Transfer characteristics       : BT.709
  37. Matrix coefficients            : BT.709

  38. Audio
  39. ID                             : 2
  40. Format                         : FLAC
  41. Format/Info                    : Free Lossless Audio Codec
  42. Codec ID                       : A_FLAC
  43. Duration                       : 3 min 11 s
  44. Bit rate mode                  : Variable
  45. Bit rate                       : 1 089 kb/s
  46. Channel(s)                     : 2 channels
  47. Channel layout                 : L R
  48. Sampling rate                  : 44.1 kHz
  49. Frame rate                     : 9.571 FPS (4608 SPF)
  50. Bit depth                      : 16 bits
  51. Compression mode               : Lossless
  52. Stream size                    : 24.8 MiB (4%)
  53. Title                          : K&DA - POP&STARS
  54. Writing library                : Lavf57.71.100
  55. Language                       : English
  56. Default                        : Yes
  57. Forced                         : No

  58. Text
  59. ID                             : 1
  60. Format                         : PGS
  61. Muxing mode                    : zlib
  62. Codec ID                       : S_HDMV/PGS
  63. Codec ID/Info                  : Picture based subtitle format used on BDs/HD-DVDs
  64. Duration                       : 3 min 1 s
  65. Bit rate                       : 655 kb/s
  66. Count of elements              : 644
  67. Stream size                    : 14.1 MiB (2%)
  68. Title                          : BYCZ
  69. Language                       : Chinese
  70. Default                        : Yes
  71. Forced                         : No
复制代码








评论 13

wenoun  新手上路  发表于 6-22 10:11:57 | 显示全部楼层
发贴辛苦了,谢谢楼主分享60帧电影的完整版!
guozp  新手上路  发表于 8-12 01:00:51 | 显示全部楼层
射射兄弟,已经谢了
柯南爱旅游  注册会员  发表于 8-12 20:45:03 | 显示全部楼层
连接咋失效了啊
4Kmots  注册会员  发表于 8-12 23:41:37 | 显示全部楼层
来看看!!
myclove  注册会员  发表于 9-15 14:33:30 | 显示全部楼层
感谢楼主的无私分享!要想4k时光好 就靠你我他
lqctp3839  月度荣誉会员  发表于 9-15 17:24:40 | 显示全部楼层
发贴辛苦了,谢谢楼主分享60帧电影的完整版!
mrmajun  新手上路  发表于 9-17 22:17:33 | 显示全部楼层
既然你诚信诚意的推荐了,那我就勉为其难的看看吧!4k时光www.4ksg.com不走平凡路。
您需要登录后才可以回帖 登录 | 立即注册

本版积分规则

0

关注

0

粉丝

2

主题
金币任务:20币保底,100币封顶

QQ|4K时光 ( 粤ICP备17047754号 )|网站地图 |

GMT+8, 10-23 01:48 , Processed in 0.228330 second(s), 47 queries .

Powered by 4K时光

© 2001-2020 4kSG.com Inc.

  • 时光客服QQ:咨询

    在线时间:10:00-22:00