请选择 进入手机版 | 继续访问电脑版
收藏本站 ㅤㅤㅤㅤ4K时光成立于2020.02.02ㅤㅤ已运行已运行
繁体
微信扫一扫 分享朋友圈

已有 7052 人浏览分享

开启左侧

[百度][2019][4K/120帧[双子杀手][无水印][英语.双语硬字幕][15GB][MP4]

[复制链接]
7052 44
影视分类
类型: 动作.犯罪
年份: 2019
地区: 欧美
浏览权限: 无浏览权限要求
扣币类别: 扣币(扣币大于1,小于50)



------虽然是硬字幕 但质量很高时间轴很精准------

------265编码小容量版本 硬盘不大的也不会纠结------

------已经刷过一遍 没发现任何水印------

------电脑要求低 1050显卡也能驾驭------

-----高参数电影 建议在PC平台上播放------


-----由于是压缩包 网盘检测会失败 不用担心 本人随时补链------



◎译  名 双子杀手 / 双子任务:叠影危机(港) / 双子煞星
◎片  名 Gemini Man
◎年  代 2019
◎产  地 美国 / 中国大陆
◎类  别 剧情 / 动作 / 科幻
◎语  言 英语
◎上映日期 2019-09-25(匈牙利) / 2019-10-11(美国) / 2019-10-18(中国大陆)
◎片  长 117分钟
◎导  演 李安 Ang Lee
◎编  剧 戴维·贝尼奥夫 David Benioff / 比利·雷 Billy Ray / 达伦·莱姆克 Darren Lemke
◎主  演 威尔·史密斯 Will Smith
       玛丽·伊丽莎白·温斯特德 Mary Elizabeth Winstead
       克里夫·欧文 Clive Owen
       本尼迪克特·王 Benedict Wong
       道格拉斯·霍奇斯 Douglas Hodges
       拉尔夫·布朗 Ralph Brown
       琳达·伊蒙 Linda Emond
       伊利亚·沃里克 Ilia Volok
       E·J·博尼拉 E.J. Bonilla
       维克多·雨果 Victor Hugo
       大卫·莫拉蒂 David Moretti
       西奥多拉·伍利 Theodora Woolley
       亚历山德拉·苏奇 Alexandra Szucs
       费尔南达·多罗吉 Fernanda Dorogi
       提姆·康纳利 Tim Connolly
       比约恩·弗赖贝格 Björn Freiberg
       施奎塔·詹姆斯 Shiquita James
       肯尼·谢尔德 Kenny Sheard
       Diego Adonye
       Igor Szasz
       Lilla Banak


◎标  签 动作 | 美国 | 科幻 | 克隆 | 120帧 | 2019 | 剧情 | 悬疑

◎简  介  

  效力于美国国防情报局的特工亨利·布罗根(威尔·史密斯 Will Smith 饰)是一名顶尖狙击手,在他的职业生涯中,曾奉命扫除许多威胁国家安全的恐怖分子。执行任务时的他下手果断,毫不迟疑。可是最后一次任务险些失手,却让他产生了动摇,进而提出解甲归田。怎奈放下屠刀的他,偶然听到了一个有关国家机密的大事,随即便招来杀人之祸。在躲过政府第一次围剿之后,他偕同因监视自己而意外被卷入其中的女特工丹妮(玛丽·伊丽莎白·温斯特德 Mary Elizabeth Winstead 饰)展开逃亡,投奔昔日战友巴伦(本尼迪克特·王 Benedict Wong 饰)。
  未曾想新的杀手阴魂不散,尾随而至。更令亨利惊讶的是,追杀他的竟是年轻了25岁的另一个自己……

◎获奖情况  

  第18届美国视觉效果协会奖(2020)
  最佳特效电影视觉效果(提名)
  最佳真人电影CG动画角色(提名)

  第6届豆瓣电影年度榜单(2019)
  评分最高的科幻/动作片(提名)














  1. General
  2. Complete name                  : D:\双子杀手.mp4
  3. Format                         : MPEG-4
  4. Format profile                 : Base Media
  5. Codec ID                       : isom (isom/iso2/mp41)
  6. File size                      : 15.0 GiB
  7. Duration                       : 1 h 57 min
  8. Overall bit rate               : 18.3 Mb/s
  9. Writing application            : Lavf58.41.100

  10. Video
  11. ID                             : 1
  12. Format                         : HEVC
  13. Format/Info                    : High Efficiency Video Coding
  14. Format profile                 : [email]Main@L5.2[/email]@Main
  15. Codec ID                       : hev1
  16. Codec ID/Info                  : High Efficiency Video Coding
  17. Duration                       : 1 h 57 min
  18. Bit rate                       : 18.2 Mb/s
  19. Width                          : 3 840 pixels
  20. Height                         : 2 076 pixels
  21. Display aspect ratio           : 1.85:1
  22. Frame rate mode                : Variable
  23. Frame rate                     : 119.880 FPS
  24. Minimum frame rate             : 119.840 FPS
  25. Maximum frame rate             : 120.000 FPS
  26. Color space                    : YUV
  27. Chroma subsampling             : 4:2:0
  28. Bit depth                      : 8 bits
  29. Bits/(Pixel*Frame)             : 0.019
  30. Stream size                    : 14.9 GiB (99%)
  31. Color range                    : Limited
  32. Color primaries                : BT.709
  33. Transfer characteristics       : BT.709
  34. Matrix coefficients            : BT.709
  35. Codec configuration box        : hvcC

  36. Audio
  37. ID                             : 2
  38. Format                         : AAC LC
  39. Format/Info                    : Advanced Audio Codec Low Complexity
  40. Codec ID                       : mp4a-40-2
  41. Duration                       : 1 h 57 min
  42. Bit rate mode                  : Constant
  43. Bit rate                       : 126 kb/s
  44. Channel(s)                     : 2 channels
  45. Channel layout                 : L R
  46. Sampling rate                  : 44.1 kHz
  47. Frame rate                     : 43.066 FPS (1024 SPF)
  48. Compression mode               : Lossy
  49. Stream size                    : 105 MiB (1%)
  50. Default                        : Yes
  51. Alternate group                : 1
复制代码




评论 44

abc8279880  中级会员  发表于 2020-7-5 20:56:19 | 显示全部楼层
这东西我收了!谢谢楼主!4k时光真好!
biaozigou  禁止发言  发表于 2020-7-6 07:33:02 | 显示全部楼层
提示: 作者被禁止或删除 内容自动屏蔽
lyt228  新手上路  发表于 2020-7-6 09:10:24 | 显示全部楼层
楼主发贴辛苦了,谢谢楼主分享!我觉得4k时光是注册对了!
fatcock  中级会员  发表于 2020-7-6 15:31:02 来自手机  | 显示全部楼层
楼主发贴辛苦了,谢谢楼主分享!我觉得4k时光是注册对了!
rentongya  中级会员  发表于 2020-7-6 18:55:59 | 显示全部楼层
这东西我收了!谢谢楼主!4k时光真好!
lblovedd1314  中级会员  发表于 2020-7-6 19:34:25 | 显示全部楼层
楼主,大恩不言谢了!4k时光www.4ksg.com最棒的!
ovaxx  中级会员  发表于 2020-7-6 20:36:51 | 显示全部楼层
我看不错噢 谢谢楼主!4k时光的60帧电影越来越好!
2633348  注册会员  发表于 2020-7-7 13:38:29 | 显示全部楼层
努力赞币中!!
2633348  注册会员  发表于 2020-7-7 13:40:25 | 显示全部楼层
努力赞币中!!
您需要登录后才可以回帖 登录 | 立即注册

本版积分规则

0

关注

0

粉丝

2

主题
金币任务:20币保底,100币封顶

QQ|免责声明|4K时光 ( 吉ICP备19001686号 )|网站地图 |

GMT+8, 2021-8-1 00:02 , Processed in 0.235623 second(s), 44 queries , Gzip On.

Powered by 4K时光

© 2001-2020 4kSG.com Inc.

  • 时光客服QQ:咨询

    在线时间:10:00-22:00