收藏本站 ㅤㅤㅤㅤ4K时光成立于2020.02.02ㅤㅤ已运行已运行
微信扫一扫 分享朋友圈

已有 6458 人浏览分享

开启左侧

[索尼演示片]超高清水族馆(高码率 HEVC)[MP4/1.05GB/百度]

[复制链接]
6458 11





General
Complete name : Sony.4K.DEMO_Aquarium.Ultra-HD.mp4
Format : MPEG-4
Format version : Base Media
Codec ID : isom (isom)
File size : 1.05 GiB
Duration : 1 min 53 s
Overall bit rate mode : Variable
Overall bit rate : 79.7 Mbps
Encoded date : UTC 2014-08-14 01:45:15
Tagged date : UTC 2014-08-14 01:45:15

Video
ID : 1
Format : HEVC
Format/Info : High Efficiency Video Coding
Format profile : Main@L5.1@Main
Codec ID : hvc1
Codec ID/Info : High Efficiency Video Coding
Duration : 1 min 53 s
Bit rate : 79.5 Mbps
Maximum bit rate : 125 Mbps
Width : 3840 pixels
Height : 2160 pixels
Display aspect ratio : 16:9
Frame rate mode : Constant
Frame rate : 59.940 (60000/1001) FPS
Color space : YUV
Chroma subsampling : 4:2:0
Bit depth : 8 bits
Bits/(Pixel*Frame) : 0.160
Stream size : 1.05 GiB (100%)
Encoded date : UTC 2014-08-14 01:51:46
Tagged date : UTC 2014-08-14 01:45:28
Color range : Limited
Color primaries : BT.709
Transfer characteristics : BT.709
Matrix coefficients : BT.709

Audio
ID : 2
Format : AAC
Format/Info : Advanced Audio Codec
Mode extension : LC
Codec ID : 40
Duration : 1 min 53 s
Source duration : 1 min 53 s
Bit rate mode : Variable
Bit rate : 192 Kbps
Maximum bit rate : 197 Kbps
Channel(s) : 2 channels
Channel positions : Front: L  R
Sampling rate : 48.0 KHz
Frame rate : 46.875 FPS (1024 spf)
Compression mode : Lossy
Stream size : 2.59 MiB (0%)
Source stream size : 2.59 MiB (0%)
Language : English
Encoded date : UTC 2014-08-14 01:51:46
Tagged date : UTC 2014-08-14 01:45:28
播放器 : Potplaye/MPC-HC
建议在大屏幕电视上观看才能体验最佳效果








评论 11

OWENGLAND  新手上路  发表于 4-9 17:43:24 | 显示全部楼层
6666666666666666666666666666
rainjayson  新手上路  发表于 4-17 15:20:04 | 显示全部楼层
真的精彩
jinxing80  注册会员  发表于 4-23 20:20:51 | 显示全部楼层
楼主,大恩不言谢了!4k时光www.4ksg.com最棒的!
欢欢欢  新手上路  发表于 4-27 22:19:35 | 显示全部楼层
这个帖子不回对不起自己!我想我是一天也不能离开4k时光www.4ksg.com
cmjhaha  新手上路  发表于 5-9 18:17:11 | 显示全部楼层
看起来不错 下来看看~
wyqzl003  新手上路  发表于 6-10 00:04:16 | 显示全部楼层
楼主,大恩不言谢了!4k时光www.4ksg.com最棒的!
zy1210tab03  新手上路  发表于 6-13 13:50:52 | 显示全部楼层
楼主太厉害了!楼主,60帧电影应该很好看我觉得4k时光真是个好地方!
您需要登录后才可以回帖 登录 | 立即注册

本版积分规则

0

关注

7

粉丝

324

主题
金币任务:20币保底,100币封顶

QQ|小黑屋|4K时光 ( 粤ICP备17047754号 )

GMT+8, 8-15 19:14 , Processed in 0.174681 second(s), 46 queries .

Powered by 4K时光

© 2001-2020 4kSG.com Inc.

  • 时光客服QQ:咨询

    在线时间:10:00-22:00