收藏本站 ㅤㅤㅤㅤ4K时光成立于2020.02.02ㅤㅤ已运行已运行
微信扫一扫 分享朋友圈

已有 63 人浏览分享

开启左侧

[4K] 《决战中途岛》 2019年高分战争片,扭转二战太平洋战场战局的重要战役 全网首发4K英语音轨 28.2G

[复制链接]
63 1



◎译  名 决战中途岛/Battle of the Midway/中途岛/中途岛战役/中途岛海战

◎片  名 Midway
◎年  代 2019
◎产  地 中国大陆,美国
◎类  别 剧情 / 历史 / 战争
◎语  言 英语
◎字  幕 英语内置字幕
◎上映日期 2019-11-08(美国/中国大陆)
◎IMDb评分  6.9/10 from 5377 users
◎豆瓣评分 7.7/10 from 39,754 users
◎片  长 138分钟
◎导  演 罗兰·艾默里奇 Roland Emmerich
◎编  剧 韦斯·图克 Wes Tooke
◎主  演 伍迪·哈里森 Woody Harrelson
       帕特里克·威尔森 Patrick Wilson
       卢克·伊万斯 Luke Evans
       艾德·斯克林 Ed Skrein
       丹尼斯·奎德 Dennis Quaid
       曼迪·摩尔 Mandy Moore
       亚历山大·路德韦格 Alexander Ludwig
       艾伦·艾克哈特 Aaron Eckhart
       达伦·克里斯 Darren Criss
       尼克·乔纳斯 Nick Jonas
       卢克·克莱恩坦克 Luke Kleintank
       杰克·韦伯 Jake Weber
       基恩·约翰逊 Keean Johnson
       浅野忠信 Tadanobu Asano
       大卫·休莱特 David Hewlett
       马克·罗斯顿 Mark Rolston
       布雷南·布朗 Brennan Brown
       詹姆斯·卡佩内罗 James Carpinello
       马修·麦考尔 Matthew MacCaull
       格雷格·霍瓦尼西安 Greg Hovanessian
       杰克·曼利 Jake Manley
       杰弗里·布莱克 Geoffrey Blake
       瑞秋·佩雷尔·佛斯基特 Rachael Perrell Fosket
       卡梅伦·布罗德 Cameron Brodeur
       杰克博·布莱尔 Jacob Blair
       克里斯蒂·布鲁克 Christie Brooke
       国村隼 Jun Kunimura
       泰勒·艾略特·伯克 Tyler Elliot Burke
       丰川悦司 Etsushi Toyokawa
       艾梅伯·瓦尔斯 Amber Walls
       莫妮卡·比卡罗娃 Monika Bicarova
       托尼·克里斯托弗 Tony Christopher
       加雷特·佐藤 Garret Sato
       罗伯特·克鲁克斯 Robert Crooks
       埃里克·戴维斯 Eric Davis
       托马斯∙瓦利埃 Thomas Vallieres
       约翰·洛巴托 John Lobato
       迪索·拉莫斯 Diezel Ramos
       Kenny Leu

◎简  介
  电影讲述的是第二次世界大战太平洋战争重要转折点——中途岛海战:经此一役,日本海军受到“降维打击”,美日海上实力反转,从而扭转了整个太平洋战场的局势。影片通过参战士兵和飞行员一个个鲜活的故事,带领观众逐步进入1942年6月初发生在太平洋中途岛附近那场令人难以置信的战争……

◎资源信息
视频轨:
Video
ID : 1
Format : HEVC
Format/Info : High Efficiency Video Coding
Format profile : Main 10@L5.1@High
HDR format : SMPTE ST 2086, HDR10 compatible
Codec ID : V_MPEGH/ISO/HEVC
Duration : 2 h 18 min
Bit rate : 25.2 Mb/s
Width : 3 840 pixels
Height : 1 608 pixels
Display aspect ratio : 2.40:1
Frame rate mode : Constant
Frame rate : 23.976 (24000/1001) FPS
Color space : YUV
Chroma subsampling : 4:2:0 (Type 2)
Bit depth : 10 bits
Bits/(Pixel*Frame) : 0.170
Stream size : 24.4 GiB (86%)
Title : Midway.2019.2160p.UHD.BluRay.x265-AAAUHD
Writing library : x265 3.2+38-fdbd4e4a2aff:[Windows][GCC 9.2.1][64 bit] 10bit
Encoding settings : cpuid=1111039 / frame-threads=5 / numa-pools=32 / wpp / no-pmode / no-pme / no-psnr / no-ssim / log-level=2 / input-csp=1 / input-res=3840x1608 / interlace=0 / total-frames=199127 / level-idc=51 / high-tier=1 / uhd-bd=0 / ref=4 / no-allow-non-conformance / repeat-headers / annexb / aud / hrd / info / hash=0 / no-temporal-layers / no-open-gop / min-keyint=1 / keyint=24 / gop-lookahead=0 / bframes=4 / b-adapt=2 / b-pyramid / bframe-bias=0 / rc-lookahead=25 / lookahead-slices=4 / scenecut=40 / hist-scenecut=0 / radl=0 / no-splice / no-intra-refresh / ctu=64 / min-cu-size=8 / rect / no-amp / max-tu-size=32 / tu-inter-depth=1 / tu-intra-depth=1 / limit-tu=0 / rdoq-level=2 / dynamic-rd=0.00 / no-ssim-rd / signhide / no-tskip / nr-intra=0 / nr-inter=0 / no-constrained-intra / no-strong-intra-smoothing / max-merge=3 / limit-refs=3 / limit-modes / me=3 / subme=3 / merange=57 / temporal-mvp / no-frame-dup / no-hme / weightp / no-weightb / no-analyze-src-pics / deblock=-3:-3 / no-sao / no-sao-non-deblock / rd=4 / selective-sao=0 / no-early-skip / rskip / no-fast-intra / no-tskip-fast / no-cu-lossless / no-b-intra / no-splitrd-skip / rdpenalty=0 / psy-rd=2.00 / psy-rdoq=1.00 / no-rd-refine / no-lossless / cbqpoffs=0 / crqpoffs=0 / rc=crf / crf=17.0 / qcomp=0.60 / qpstep=4 / stats-write=0 / stats-read=0 / vbv-maxrate=160000 / vbv-bufsize=160000 / vbv-init=0.9 / crf-max=0.0 / crf-min=0.0 / ipratio=1.40 / pbratio=1.30 / aq-mode=2 / aq-strength=1.00 / cutree / zone-count=0 / no-strict-cbr / qg-size=32 / no-rc-grain / qpmax=69 / qpmin=0 / no-const-vbv / sar=1 / overscan=0 / videoformat=5 / range=0 / colorprim=9 / transfer=16 / colormatrix=9 / chromaloc=1 / chromaloc-top=2 / chromaloc-bottom=2 / display-window=0 / master-display=G(13250,34500)B(7500,3000)R(34000,16000)WP(15635,16450)L(10000000,1) / cll=1000,476 / min-luma=0 / max-luma=1023 / log2-max-poc-lsb=8 / vui-timing-info / vui-hrd-info / slices=1 / no-opt-qp-pps / no-opt-ref-list-length-pps / no-multi-pass-opt-rps / scenecut-bias=0.05 / hist-threshold=0.01 / no-opt-cu-delta-qp / no-aq-motion / hdr10 / hdr10-opt / no-dhdr10-opt / no-idr-recovery-sei / analysis-reuse-level=0 / analysis-save-reuse-level=0 / analysis-load-reuse-level=0 / scale-factor=0 / refine-intra=0 / refine-inter=0 / refine-mv=1 / refine-ctu-distortion=0 / no-limit-sao / ctu-info=0 / no-lowpass-dct / refine-analysis-type=0 / copy-pic=1 / max-ausize-factor=1.0 / no-dynamic-refine / no-single-sei / no-hevc-aq / no-svt / no-field / qp-adaptation-range=1.00 / no-scenecut-aware-qpconformance-window-offsets / right=0 / bottom=0
Default : Yes
Forced : No
Color range : Limited
Color primaries : BT.2020
Transfer characteristics : PQ
Matrix coefficients : BT.2020 non-constant
Mastering display color primaries : Display P3
Mastering display luminance : min: 0.0001 cd/m2, max: 1000 cd/m2
Maximum Content Light Level : 1000 cd/m2
Maximum Frame-Average Light Level : 476 cd/m2

音频轨:
Audio #1
ID : 2
Format : MLP FBA 16-ch
Format/Info : Meridian Lossless Packing FBA with 16-channel presentation
Commercial name : Dolby TrueHD with Dolby Atmos
Codec ID : A_TRUEHD
Duration : 2 h 18 min
Bit rate mode : Variable
Bit rate : 3 190 kb/s
Maximum bit rate : 5 460 kb/s
Channel(s) : 8 channels
Channel layout : L R C LFE Ls Rs Lb Rb
Sampling rate : 48.0 kHz
Frame rate : 1 200.000 FPS (40 SPF)
Compression mode : Lossless
Stream size : 3.08 GiB (11%)
Title : English Dolby TrueHD with Dolby Atmos (TrueHD)
Language : English
Default : Yes
Forced : No
Number of dynamic objects : 11
Bed channel count : 1 channel
Bed channel configuration : LFE

Audio #2
ID : 3
Format : AC-3
Format/Info : Audio Coding 3
Commercial name : Dolby Digital
Codec ID : A_AC3
Duration : 2 h 18 min
Bit rate mode : Constant
Bit rate : 640 kb/s
Channel(s) : 6 channels
Channel layout : L R C LFE Ls Rs
Sampling rate : 48.0 kHz
Frame rate : 31.250 FPS (1536 SPF)
Bit depth : 16 bits
Compression mode : Lossy
Stream size : 634 MiB (2%)
Title : English Dolby Digital (AC3)
Language : English
Service kind : Complete Main
Default : No
Forced : No

字幕轨:
Text #1
ID : 4
Format : UTF-8
Codec ID : S_TEXT/UTF8
Codec ID/Info : UTF-8 Plain Text
Duration : 2 h 8 min
Bit rate : 42 b/s
Count of elements : 1225
Stream size : 40.1 KiB (0%)
Title : English
Language : English
Default : No
Forced : No

Text #2
ID : 5
Format : UTF-8
Codec ID : S_TEXT/UTF8
Codec ID/Info : UTF-8 Plain Text
Duration : 2 h 8 min
Bit rate : 48 b/s
Count of elements : 1444
Stream size : 45.4 KiB (0%)
Title : English SDH
Language : English
Default : No
Forced : No

Text #3
ID : 6
Format : PGS
Codec ID : S_HDMV/PGS
Codec ID/Info : Picture based subtitle format used on BDs/HD-DVDs
Duration : 2 h 8 min
Bit rate : 30.1 kb/s
Count of elements : 2462
Stream size : 27.6 MiB (0%)
Title : English PGS
Language : English
Default : No
Forced : No

Text #4
ID : 7
Format : PGS
Codec ID : S_HDMV/PGS
Codec ID/Info : Picture based subtitle format used on BDs/HD-DVDs
Duration : 2 h 8 min
Bit rate : 34.5 kb/s
Count of elements : 2902
Stream size : 31.6 MiB (0%)
Title : English SDH PGS
Language : English
Default : No
Forced : No

章节点(高潮标记)
Menu
00:00:00.000 : :Chapter 01
00:09:36.659 : :Chapter 02
00:17:37.682 : :Chapter 03
00:25:13.512 : :Chapter 04
00:30:33.623 : :Chapter 05
00:39:34.289 : :Chapter 06
00:46:13.020 : :Chapter 07
00:53:48.851 : :Chapter 08
01:00:32.963 : :Chapter 09
01:09:01.971 : :Chapter 10
01:16:11.025 : :Chapter 11
01:24:48.041 : :Chapter 12
01:31:49.546 : :Chapter 13
01:42:08.873 : :Chapter 14
01:51:17.880 : :Chapter 15
02:02:21.084 : :Chapter 16


  • 该附件回复可见,你已回复 0 次(回复后需按F5刷新页面)
  • 1、Midway.2019.2160p.UHD.BluRay.x265-AAAUHD.rar 72KB 已下载 0 次

Midway.2019.2160p.UHD.BluRay.x265-AAAUHD.rar

71.78 KB, 阅读权限: 30, 下载次数: 0, 下载积分: 时光币 -2

售价: 5 时光币  [记录]  [购买]

2160p

评论 1

您需要登录后才可以回帖 登录 | 立即注册

本版积分规则

0

关注

4

粉丝

169

主题
金币任务:20币保底,100币封顶

QQ|4K时光 ( 粤ICP备17047754号 )|网站地图 |

GMT+8, 11-29 02:49 , Processed in 0.158821 second(s), 46 queries .

Powered by 4K时光

© 2001-2020 4kSG.com Inc.

  • 时光客服QQ:咨询

    在线时间:10:00-22:00