请选择 进入手机版 | 继续访问电脑版
收藏本站 ㅤㅤㅤㅤ4K时光成立于2020.02.02ㅤㅤ已运行已运行
繁体
微信扫一扫 分享朋友圈

已有 241 人浏览分享

开启左侧

【百度云】【1080P-60帧】致命女郎/蛇蝎美人2020/H264-AC3-5.1-MKV【简英特字】12.12G

[复制链接]
241 12
影视分类
类型: 恐怖.惊悚
年份: 2020
地区: 欧美
浏览权限: 无浏览权限要求
扣币类别: 扣币(扣币大于1,小于50)


导演: 德翁·泰勒
编剧: 戴维·朗格利
主演: 希拉里·斯万克 / 迈克尔·伊雷 / 迈克·柯尔特 / 卡莉·霍克 / 丹尼·皮诺 / 达马里斯·刘易斯 / 萨姆·戴利 / 杰弗里·欧文斯 / 大卫·霍夫林 / 奥克莉·布尔 / 达拉斯·钱德勒 / 泰里恩·特纳 / 朱莉安娜·唐纳德 / 莱克萨·格鲁克 / 丹尼丝·道丝 / 凯瑞·威斯特科特
类型: 惊悚
制片国家/地区: 美国
语言: 英语
上映日期: 2020-12-18(美国)
片长: 102分钟
又名: 蛇蝎美人
IMDb链接: tt8829830


剧情简介:
  影片讲述一个成功的体育经纪人达伦(迈克尔·伊雷饰),当他被卷入由一个身份存疑、不知羞耻但行为坚定的侦探(希拉里·斯万克饰)领导的警方调查中,他原本的完美生活渐渐消失……


影片信息:
General
Unique ID                      : 181885311043616991665550372805177249683 (0x88D5D631DC4112909EAC78493AC40F93)
Format                         : Matroska
Format version                 : Version 4
File size                      : 12.1 GiB
Duration                       : 1 h 42 min
Overall bit rate               : 16.9 Mb/s
Movie name                     : linxianwei
Encoded date                   : UTC 2021-02-19 05:52:35
Writing application            : mkvmerge v11.0.0 ('Alive') 32bit
Writing library                : libebml v1.3.4 + libmatroska v1.4.5


Video
ID                             : 1
Format                         : AVC
Format/Info                    : Advanced Video Codec
Format profile                 : High@L4.2
Format settings                : CABAC / 4 Ref Frames
Format settings, CABAC         : Yes
Format settings, Reference fra : 4 frames
Codec ID                       : V_MPEG4/ISO/AVC
Duration                       : 1 h 42 min
Bit rate                       : 16.3 Mb/s
Width                          : 1 920 pixels
Height                         : 800 pixels
Display aspect ratio           : 2.40:1
Frame rate mode                : Constant
Frame rate                     : 60.000 FPS
Color space                    : YUV
Chroma subsampling             : 4:2:0
Bit depth                      : 8 bits
Scan type                      : Progressive
Bits/(Pixel*Frame)             : 0.177
Stream size                    : 11.7 GiB (96%)
Title                          : linxianwei
Writing library                : x264 core 157 r2969 d4099dd
Encoding settings              : cabac=1 / ref=3 / deblock=1:0:0 / analyse=0x3:0x113 / me=hex / subme=7 / psy=1 / psy_rd=1.00:0.00 / mixed_ref=1 / me_range=16 / chroma_me=1 / trellis=1 / 8x8dct=1 / cqm=0 / deadzone=21,11 / fast_pskip=1 / chroma_qp_offset=-2 / threads=12 / lookahead_threads=2 / sliced_threads=0 / nr=0 / decimate=1 / interlaced=0 / bluray_compat=0 / constrained_intra=0 / bframes=3 / b_pyramid=2 / b_adapt=1 / b_bias=0 / direct=1 / weightb=1 / open_gop=0 / weightp=2 / keyint=600 / keyint_min=59 / scenecut=40 / intra_refresh=0 / rc_lookahead=40 / rc=crf / mbtree=1 / crf=11.0 / qcomp=0.60 / qpmin=0 / qpmax=69 / qpstep=4 / ip_ratio=1.40 / aq=1:1.00
Default                        : Yes
Forced                         : Yes


Audio
ID                             : 2
Format                         : E-AC-3
Format/Info                    : Enhanced AC-3
Commercial name                : Dolby Digital Plus
Codec ID                       : A_EAC3
Duration                       : 1 h 42 min
Bit rate mode                  : Constant
Bit rate                       : 640 kb/s
Channel(s)                     : 6 channels
Channel layout                 : L R C LFE Ls Rs
Sampling rate                  : 48.0 kHz
Frame rate                     : 31.250 FPS (1536 SPF)
Compression mode               : Lossy
Stream size                    : 470 MiB (4%)
Language                       : English
Service kind                   : Complete Main
Default                        : Yes
Forced                         : Yes


Text
ID                             : 3
Format                         : ASS
Codec ID                       : S_TEXT/ASS
Codec ID/Info                  : Advanced Sub Station Alpha
Duration                       : 1 h 38 min
Bit rate                       : 153 b/s
Count of elements              : 1156
Compression mode               : Lossless
Stream size                    : 111 KiB (0%)
Default                        : Yes
Forced                         : No




本帖子中包含更多资源

您需要 登录 才可以下载或查看,没有帐号?立即注册

x

评论 12

muzisanmei  注册会员  发表于 2021-2-20 17:27:41 | 显示全部楼层
这东西我收了!谢谢楼主!4k时光真好!神马电影!
xyxg197836  中级会员  发表于 2021-2-21 09:21:27 | 显示全部楼层
神马电影,发贴辛苦了,谢谢楼主分享60帧电影的完整版!我觉得4k时光www.4ksg.com真是个好地方!
驴踢  注册会员  发表于 2021-2-23 07:57:05 | 显示全部楼层
这东西我收了!谢谢楼主!4k时光真好!神马电影!
蹬三轮收旧冰箱  注册会员  发表于 2021-2-23 09:18:45 | 显示全部楼层
感谢楼主的无私分享!要想4k时光好 就靠你我他,神马电影!
唐纳德-不靠谱  注册会员  发表于 2021-2-23 09:22:46 | 显示全部楼层
感谢楼主的无私分享!要想4k时光好 就靠你我他,神马电影!
驴踢  注册会员  发表于 2021-2-23 09:28:11 | 显示全部楼层
论坛不能没有像楼主这样的人才啊!我会一直支持4k时光。
二货  注册会员  发表于 2021-2-23 09:32:04 | 显示全部楼层
说到60帧电影资源,其实我一直觉得楼主的品味不错!呵呵!4k时光太棒了!电影天堂!
安静美男子  注册会员  发表于 2021-2-23 09:39:03 | 显示全部楼层
论坛不能没有像楼主这样的人才啊!我会一直支持4k时光。
您需要登录后才可以回帖 登录 | 立即注册

本版积分规则

0

关注

4

粉丝

26

主题
金币任务:20币保底,100币封顶

QQ|免责声明|4K时光 ( 吉ICP备19001686号 )|网站地图 |

GMT+8, 2021-4-19 23:59 , Processed in 0.231341 second(s), 42 queries , Gzip On.

Powered by 4K时光

© 2001-2020 4kSG.com Inc.

  • 时光客服QQ:咨询

    在线时间:10:00-22:00