收藏本站 ㅤㅤㅤㅤ4K时光成立于2020.02.02ㅤㅤ已运行已运行
时光红包
切换到宽版
微信扫一扫 分享朋友圈

已有 6730 人浏览分享

[2021][速度与激情9][MKV/70GB][8K.蓝光.4320P.x265.50FPS][英语配音]

[复制链接]
6730 47
影视分类
类型: 动作.犯罪
年份: 2021
地区: 欧美
浏览权限: 无浏览权限要求
扣币类别: 扣币(扣币大于49,小于60)



导演: 林诣彬
编剧: 丹·凯西 / 盖瑞·斯科特·汤普森
主演: 范·迪塞尔 / 约翰·塞纳 / 米歇尔·罗德里格兹 / 乔丹娜·布鲁斯特 / 泰瑞斯·吉布森
类型: 动作 / 犯罪
制片国家/地区: 美国
语言: 英语
上映日期: 2021-05-21(中国大陆) / 2021-05-19(韩国) / 2021-06-25(美国)
片长: 142分钟(中国大陆) / 150分钟(导演剪辑版)
又名: F9狂野时速(港) / 玩命关头9(台) / 狂野时速9 / 速激9 / FF9 / Fast & Furious 9
IMDb: tt5433138


Format                         : MPEG-4
Format profile                 : Base Media / Version 2
Codec ID                       : mp42 (mp42/mp41)
File size                      : 70.0 GiB
Duration                       : 2 h 29 min
Overall bit rate mode          : Variable
Overall bit rate               : 66.8 Mb/s
Encoded date                   : UTC 2021-09-13 22:27:11
Tagged date                    : UTC 2021-09-13 23:03:03
TIM                            : 00:00:00:00
TSC                            : 50
TSZ                            : 1

Video
ID                             : 1
Format                         : HEVC
Format/Info                    : High Efficiency Video Coding
Format profile                 : Main@L6.2@Main
Codec ID                       : hvc1
Codec ID/Info                  : High Efficiency Video Coding
Duration                       : 2 h 29 min
Bit rate                       : 66.2 Mb/s
Width                          : 7680 pixels
Height                         : 4320 pixels
Display aspect ratio           : 16:9
Frame rate mode                : Constant
Frame rate                     : 50.000 FPS
Color space                    : YUV
Chroma subsampling             : 4:2:0
Bit depth                      : 8 bits
Bits/(Pixel*Frame)             : 0.040
Stream size                    : 69.3 GiB (99%)
Language                       : English
Encoded date                   : UTC 2021-09-13 22:27:11
Tagged date                    : UTC 2021-09-13 22:27:11
Codec configuration box        : hvcC

Audio
ID                             : 2
Format                         : AAC LC
Format/Info                    : Advanced Audio Codec Low Complexity
Codec ID                       : mp4a-40-2
Duration                       : 2 h 29 min
Source duration                : 2 h 29 min
Bit rate mode                  : Variable
Bit rate                       : 637 kb/s
Maximum bit rate               : 800 kb/s
Channel(s)                     : 6 channels
Channel layout                 : C L R Ls Rs LFE
Sampling rate                  : 48.0 kHz
Frame rate                     : 46.875 FPS (1024 SPF)
Compression mode               : Lossy
Stream size                    : 683 MiB (1%)
Source stream size             : 683 MiB (1%)
Language                       : English
Encoded date                   : UTC 2021-09-13 22:27:11
Tagged date                    : UTC 2021-09-13 22:27:11

共收到 0 时光币
打赏榜
暂无
暂无
暂无
暂无
----
暂无
----
暂无
----
暂无
----

评论 84

zl3113306  中级会员  发表于 2023-2-6 09:36:21 | 显示全部楼层
大致看明白了,60帧视频下载网站这里是天堂。
wanglansky  注册会员  发表于 2023-2-6 16:23:38 | 显示全部楼层
4k电影下载,时光算是效率最高的了。
夜猎鱼人  注册会员  发表于 2023-2-6 17:58:07 | 显示全部楼层
最新电影下载,韩国电影,日本电影,美国电影,香港电影,这里真不错。
气寒东北  中级会员  发表于 2023-2-6 20:12:52 | 显示全部楼层
说到60帧电影资源,其实我一直觉得楼主的品味不错!呵呵!4k时光太棒了!电影天堂!
liebergraf  注册会员  发表于 2023-2-6 20:12:53 | 显示全部楼层
论坛不能没有像楼主这样的人才啊!我会一直支持4k时光。
chensize3  新手上路  发表于 2023-2-6 20:13:22 | 显示全部楼层
这东西我收了!谢谢楼主!午夜电影院。
Mr.yu_♪  新手上路  发表于 2023-2-6 21:42:08 | 显示全部楼层
4k60帧电影网站免费资源也就是4K时光了。
weiger999  新手上路  发表于 2023-2-8 01:39:34 | 显示全部楼层
感谢楼主分享
您需要登录后才可以回帖 登录 | 立即注册

本版积分规则

0

关注

12

粉丝

29

主题
简体中文
繁體中文
English(英语)
日本語(日语)
Deutsch(德语)
Русский язык(俄语)
بالعربية(阿拉伯语)
Türkçe(土耳其语)
Português(葡萄牙语)
ภาษาไทย(泰国语)
한어(朝鲜语/韩语)
Français(法语)

QQ|免责声明|4K时光

GMT+8, 2024-2-29 23:46

Powered by 4K时光

© 2001-2020 4kSG.com Inc.

  • 时光客服QQ:咨询

    在线时间:10:00-22:00